#TITLE:Freeky Like Me;
#SUBTITLE:Expi3nze & sdo;
#ARTIST:Madcon Feat. Ameerah;
#TITLETRANSLIT:;
#SUBTITLETRANSLIT:;
#ARTISTTRANSLIT:;
#CREDIT:;
#BANNER:bn.png;
#BACKGROUND:bg.png;
#LYRICSPATH:;
#CDTITLE:cdtitle.png;
#MUSIC:Freeky-Like Me.mp3;
#OFFSET:-0.080;
#SAMPLESTART:48.568;
#SAMPLELENGTH:12.000;
#SELECTABLE:YES;
#BPMS:0.000=172.008,1.000=171.997,3.000=172.008,4.000=171.997,7.000=172.008,8.000=171.997,10.000=172.008,11.000=171.997,14.000=172.008,15.000=171.997,17.000=172.008,18.000=171.997,21.000=172.008,22.000=171.997,25.000=172.008,26.000=171.997,28.000=172.008,29.000=171.997,32.000=172.008,33.000=171.997,35.000=172.008,36.000=171.997,39.000=172.008,40.000=171.997,41.000=86.004,41.500=344.083,42.000=343.994,43.500=86.004,44.000=85.998,45.000=86.001,46.000=85.998,47.000=86.001,49.000=85.998,50.000=86.001,51.000=85.998,52.000=86.001,53.000=85.998,54.000=86.001,55.000=85.998,56.000=86.001,58.000=85.998,59.000=86.001,60.000=85.998,61.000=86.001,62.000=85.998,63.000=86.001,64.000=85.998,65.000=86.001,67.000=85.998,68.000=86.001,69.000=85.998,70.000=86.001,71.000=85.998,72.000=86.001,73.000=85.998,74.000=86.001,76.000=85.998,77.000=86.001,78.000=85.998,79.000=86.001,80.000=85.998,81.000=86.001,83.000=85.998,84.000=86.001,85.000=85.998,86.000=86.001,87.000=85.998,88.000=86.001,89.000=85.998,90.000=86.004,90.500=43.001,90.833=171.997,91.000=172.019,91.500=86.004,92.000=85.998,93.000=86.001,94.000=85.998,95.000=86.001,96.000=85.998,97.000=86.001,99.000=85.998,100.000=86.001,101.000=85.998,102.000=86.001,103.000=85.998,104.000=86.001,105.000=85.998,106.000=86.001,108.000=85.998,109.000=86.001,110.000=85.998,111.000=86.001,112.000=85.998,113.000=86.001,114.000=85.998,115.000=86.001,117.000=85.998,118.000=86.001,119.000=85.998,120.000=86.001,121.000=85.998,122.000=86.001,124.000=85.998,125.000=86.001,126.000=85.998,127.000=86.001,128.000=85.998,129.000=86.001,130.000=85.998,131.000=86.001,133.000=85.998,134.500=172.019,135.000=86.001,136.000=85.998,136.500=172.019,137.000=86.001,138.000=85.998,139.000=86.001,140.000=172.008,141.000=171.997,144.000=172.008,145.000=171.997,147.000=172.008,148.000=171.997,151.000=172.008,152.000=171.997,154.000=172.008,155.000=171.997,158.000=172.008,159.000=171.997,161.000=172.008,162.000=171.997,165.000=172.008,166.000=171.997,169.000=172.008,170.000=43.001,170.500=86.004,171.000=86.001,172.000=85.998,173.000=86.001,174.000=85.998,175.000=86.001,177.000=85.998,178.000=86.001,179.000=85.998,180.000=86.001,181.000=85.998,182.000=86.001,184.000=85.998,185.000=86.001,186.000=85.998,187.000=86.001,188.000=85.998,189.000=86.001,190.000=85.998,191.000=86.001,193.000=85.998,194.000=86.001,195.000=85.998,196.000=86.001,197.000=85.998,198.000=86.001,199.000=85.998,200.000=86.001,202.000=85.998,203.000=86.001,204.000=85.998;
#STOPS:;
#BGCHANGES:;
// cache tags:
#FIRSTBEAT:11.000;
#LASTBEAT:204.000;
#SONGFILENAME:Songs/SDO pack 1/Freeky Like Me (Madcon Feat. Ameerah)/Freeky-Like Me.sm;
#HASMUSIC:1;
#HASBANNER:1;
#MUSICLENGTH:117.953;
// end cache tags

//---------------dance-single - ----------------
#NOTES:
     dance-single:
     :
     Hard:
     18:
     1.000,1.000,1.000,0.415,0.894,557.000,233.000,49.000,0.000,63.000:
0000
0000
0000
0000
,
0000
0000
0000
0000
,
0000
0000
0000
0012
,
0000
1000
0000
0010
0100
0000
0213
0000
,
0000
1000
0000
0001
0010
0000
0321
0100
,
0001
0000
1000
0000
0100
0000
0001
0000
0100
0000
0000
0000
2130
0000
0000
0010
,
0100
0001
0000
0100
0010
0001
3211
1000
,
0010
1001
0001
1010
0011
1000
0312
0100
,
1000
0110
0100
1010
1100
0010
1203
0010
,
1000
0011
1000
1010
1001
0010
1302
0010
,
1000
0000
0100
0000
1113
0001
2020
0000
0000
0000
0000
0000
0000
0000
3131
0100
,
0010
0100
0011
1000
0010
0100
1001
0100
0010
0100
1010
0100
0001
1000
0110
1000
,
0001
0110
1001
0010
0101
1000
0010
0100
0001
1000
0101
1010
1100
0101
1010
0100
,
0010
0100
0011
1000
0010
0100
1001
0100
0010
0100
1010
0100
0001
1000
0101
1000
,
0010
0000
0101
0000
1010
0000
0100
0000
0011
0000
1000
0000
0010
0000
0100
0000
0001
0000
1000
0000
0101
0000
0010
0010
1000
0000
0001
0000
0100
0000
0000
0000
,
0010
0001
0110
1000
1000
0010
1000
0000
0011
1000
0101
1000
0110
0001
1000
0010
,
0101
0010
0011
1000
0011
0001
0100
0000
1010
0001
0110
1000
1001
0010
0100
0000
,
0011
0100
1000
0001
1010
0100
0001
0000
1010
0000
0011
1000
0101
0010
0100
0000
,
1010
0001
1100
0010
1001
0100
0012
0000
1000
1000
0123
1000
1001
0100
1031
0100
,
0010
0100
0011
1000
1010
0000
0101
0000
1010
1000
0011
0100
1010
0001
1000
0010
,
1100
0001
1010
0100
0011
1000
0010
0000
0101
0001
1010
0001
0110
1001
0010
0100
,
1001
0010
1100
0001
0110
0001
1000
0000
0101
1000
0011
0100
1010
0001
1010
0000
,
0101
0010
1100
0001
0110
1000
0101
0000
1010
0010
0202
0000
0000
0000
1313
0100
,
0001
1000
0011
0100
0001
1010
0100
1000
0001
0100
0011
0000
1010
0001
0100
0010
,
1000
0001
0110
1000
1000
0001
0010
0100
0001
0001
1010
0100
0010
1000
0101
0000
,
1110
0000
0011
1000
0010
0000
1001
0000
1101
0001
0110
0100
1010
0000
0101
1000
,
0100
0000
0011
0000
1000
0000
0010
0000
0101
0000
0010
0000
1000
0000
0100
0000
0010
0000
0001
0000
1100
0000
0001
0001
1000
0000
0010
0000
0201
0000
0000
0000
,
1000
0010
1300
0011
1100
0001
1200
0001
0010
1000
0311
0000
0101
0000
1020
0000
,
0100
0001
0130
0011
1100
0000
1020
0001
0100
1000
0131
0000
1001
0000
0210
0000
,
1000
0010
0301
1100
0011
1000
0201
0010
1000
0010
0311
0000
0101
0000
2010
0000
,
0001
0010
3100
0011
1010
0000
2010
0001
0100
0010
3101
1010
0101
1010
0100
0001
,
1010
0001
1100
0001
1010
0100
0001
1000
0011
0001
1100
0011
0100
0011
0100
0001
,
1010
0100
0011
1000
1001
0010
0100
0000
1010
0000
0101
1010
0101
0011
1000
0010
,
1100
0001
1010
0100
0011
1000
0101
0000
1010
0000
0202
0000
0000
1313
0000
2002
,
0000
0000
3113
0000
1001
0000
0000
0000
0220
0000
0000
0000
1331
0000
0000
0000
1010
0000
0000
0000
0110
0000
1001
0000
0010
0000
1000
1000
0011
0000
0101
0000
,
1020
0000
0001
1000
0100
0000
0001
1000
,
0231
0000
0010
1000
0000
0001
1000
0000
,
0312
0000
0000
1010
0000
0100
0000
1010
,
0213
0001
1000
0010
1000
0001
1000
0010
,
1322
0000
1000
0100
1003
0101
1200
0000
,
2332
0000
0000
0010
3100
0000
0000
0000
,
0223
0000
0000
0000
1030
1001
0011
0000
,
2302
0000
0000
0000
0000
0000
0000
0000
3223
0000
1331
0100
0010
1000
0011
0100
,
0100
0010
0100
0001
1000
0010
0101
1000
0010
0010
0102
0010
1000
0010
1103
0010
,
0010
0001
0100
0010
1000
1000
0011
1100
0011
0100
0010
0000
0111
0000
1010
0010
,
0101
0000
1010
0000
0111
0000
1010
0100
0011
0000
1010
0100
0001
1100
0010
0100
,
1001
0000
0010
0000
1000
0000
0100
0000
0010
0000
0001
0000
1010
0000
0100
0100
0001
0000
0010
0000
1000
0000
0011
0000
0110
0000
0011
0000
1100
0000
0101
0000
,
1010
0000
0101
0000
1000
0010
0001
0000
0100
0000
0001
0000
1010
0000
0100
0000
0001
0000
0000
0000
0100
0000
0011
0000
1100
0000
0011
0000
0100
0000
0011
0000
,
1100
0000
0011
0000
1002
0000
0100
0100
0010
0000
0010
0000
1203
0000
0011
0000
1010
0000
0000
0000
0321
0000
0000
0000
0001
0000
0100
0000
1001
0000
0100
0000
,
0001
2100
0031
0000
0010
0000
3101
0001
1010
0110
0001
1010
0101
0000
1100
0100
,
1010
2010
0001
0000
3010
0010
0101
1010
0101
0100
1001
0010
0100
1010
0100
0000
,
0101
0000
0000
0000
,
0000
0000
0000
0000
,
0000
0000
0000
0000
;
